[Latino] ¡Ah qué Kiko! (1987)

[Exclusivo] [Difícil]
Imagen
Reglas del Foro
- Responde los mensajes de manera correcta. mensajes cortos serán eliminados y el usuario será excluido de la página. :banned2:
Tus 30 segundos de dedicación no se comparan al tiempo que tardó el autor en subir y compartir contigo ese aporte.

Ejemplos de buena práctica: :drunk:
¿Que te recuerda este aporte?
¿Dónde recuerdas que lo transmitieron o lo viste?
¿Qué es lo que más te gusta de ese aporte?


- Recuerda puntuar y dar gracias por el aporte :clapping:
Imagen

Agradecer no cuesta nada, pero subir una serie si

[Exclusivo] [Difícil] ¡Ah qué Kiko! (1987)

Notapor seriépata » 2019-05-07- 7:19

Imagen
Información General : 
[barra sinopsis]

Serie de TV (15 episodios). Protagonizada por Carlos Villagrán como "Kiko" y Ramón Valdés como "Don Ramón", personajes surgidos del éxito televisivo de los años 70: "El Chavo del Ocho". Kiko trabaja en una tienda de abarrotes, y el administrador es Don Ramón (después Don Cejudo, interpretado por Sergio Ramos "El Comanche"), Kiko se pasa el día haciendo destrozos dentro y fuera de la tienda... (FILMAFFINITY)
[datos principales]

  • Título en español: ¡Ah qué Kiko!
  • Título Original: ¡Ah qué Kiko!
  • País: México
  • Año: 1987
  • Productora: Emitida por Imevision; Telerey S.A
  • N° Temporadas Totales: 2
  • N° Capítulos Totales: 24
  • N° Capítulos Compartidos: 4

    [barra trailer]
    Watch on youtube.com

Lista de Capítulos : 
Temporada 1

Volumen 1:

- El El Aparato Desintegrador
- La Lámpara Mágica
- Los Gitanos
- Episodio Extra
- Cortos

MediaInfo : 
General
Complete name : D:\#GR\1988 ¡Ah qué Kiko! [DVDFULL]\VIDEO_TS\VTS_03_1.VOB
Format : MPEG-PS
File size : 1 024 MiB
Duration : 21 min 37 s
Overall bit rate mode : Constant
Overall bit rate : 6 619 kb/s

Video
ID : 224 (0xE0)
Format : MPEG Video
Format version : Version 2
Format profile : Main@Main
Format settings, BVOP : Yes
Format settings, Matrix : Default
Format settings, GOP : M=5, N=26
Format settings, picture struc : Field
Duration : 21 min 37 s
Bit rate mode : Constant
Bit rate : 6 263 kb/s
Maximum bit rate : 8 000 kb/s
Width : 720 pixels
Height : 480 pixels
Display aspect ratio : 4:3
Frame rate : 29.970 (30000/1001) FPS
Standard : NTSC
Color space : YUV
Chroma subsampling : 4:2:0
Bit depth : 8 bits
Scan type : Interlaced
Scan order : Top Field First
Compression mode : Lossy
Bits/(Pixel*Frame) : 0.605
Time code of first frame : 01:00:07:15
Time code source : Group of pictures header
GOP, Open/Closed : Open
Stream size : 969 MiB (95%)
Color primaries : BT.601 NTSC
Transfer characteristics : BT.601
Matrix coefficients : BT.601

Audio
ID : 189 (0xBD)-128 (0x80)
Format : AC-3
Format/Info : Audio Coding 3
Format settings, Endianness : Big
Muxing mode : DVD-Video
Duration : 21 min 37 s
Bit rate mode : Constant
Bit rate : 224 kb/s
Channel(s) : 2 channels
Channel positions : Front: L R
Sampling rate : 48.0 kHz
Frame rate : 31.250 FPS (1536 SPF)
Bit depth : 16 bits
Compression mode : Lossy
Stream size : 34.7 MiB (3%)
Service kind : Complete Main

Menu
  • 0

Membresía Premium
Membresía Premium
Avatar de Usuario
seriépata
Chile (cl)
Iniciado
Iniciado
 
Mensajes: 109
Registrado: 2018-04-10- 2:05
Dinero en mano: 243,579.50
última Visita: Hoy- 2:05

Invitaciones enviadas: 0
Referencias: 0
Género: Hombre
Reputación: 33
Película o Serie Favorita: The Twilight Zone
Progreso Membresía Plus:
100%
Progreso Membresía Premium:
100%
Progreso Membresía Deluxe:
56%
Trabajos realizados: Sincronizador de audio, Creador de subtítulos, Ripeador de DVD y BluRay
  
  

Advertisement

Tip1

¡Ah qué Kiko! (1987)

Notapor Gretro Bot » 2019-05-07- 7:19

Gracias por tu aporte! :clapping:
Recuerda cuidar y mantener en linea tus enlaces, es responsabilidad de todos nosotros colaborar y asegurar en la felicidad de todos nuestros compañeros


Nota Importante:
TU SATISFACCIÓN NOS IMPORTA

Si este aporte tiene sus enlaces rotos, o la información no corresponde con lo descargado, no dudes en avisarnos,
Instrucciones:
haciendo click en el botón de exclamación, situado en la parte superior del primer mensaje:
Imagen

Si has gastado puntos en un aporte con links rotos, te vamos a restituir todos los puntos, con un 10% adicional en compensación por las molestias y nos preocuparemos en restituir los enlaces a la brevedad posible.
  • 0

Membresía de Prueba
Membresía de Prueba
Avatar de Usuario
Gretro Bot
Experto
Experto
 
Mensajes: 14246
Registrado: 2015-10-21- 12:15
Dinero en mano: 121,327.21
última Visita: 2018-11-02- 15:33

Invitaciones enviadas: 0
Referencias: 1
Género: No especificado
Reputación: 125
Progreso Membresía Deluxe:
  • Member’s introduction
  
  

Re: ¡Ah qué Kiko! (1987)

Notapor erucazado009 » 2019-05-09- 13:46

Gracias por compartir este aporte, de lujo.
  • 0

Membresía Básica
Membresía Básica
Avatar de Usuario
erucazado009
Peru (pe)
Iniciado
Iniciado
 
Mensajes: 34
Registrado: 2017-09-26- 18:54
Dinero en mano: 22,933.50
última Visita: Hoy- 2:01

Invitaciones enviadas: 0
Referencias: 0
Género: Hombre
Reputación: 3
Película o Serie Favorita: code geass
Progreso Membresía Plus:
89%
Progreso Membresía Premium: [progress2]0[/progress2]
Progreso Membresía Deluxe: [progress3]0[/progress3]
Trabajos realizados: Ninguno
  
  

Re: ¡Ah qué Kiko! (1987)

Notapor seriépata » 2019-05-10- 1:50

erucazado009 escribió:Gracias por compartir este aporte, de lujo.


De nada colega, estoy en busqueda del resto de DVDs, no está fácil. Todos los venden, pero algo es algo. Ya llegarán. Saludos y gracias por comentar! :D
  • 0

Membresía Premium
Membresía Premium
Avatar de Usuario
seriépata
Chile (cl)
Iniciado
Iniciado
 
Mensajes: 109
Registrado: 2018-04-10- 2:05
Dinero en mano: 243,579.50
última Visita: Hoy- 2:05

Invitaciones enviadas: 0
Referencias: 0
Género: Hombre
Reputación: 33
Película o Serie Favorita: The Twilight Zone
Progreso Membresía Plus:
100%
Progreso Membresía Premium:
100%
Progreso Membresía Deluxe:
56%
Trabajos realizados: Sincronizador de audio, Creador de subtítulos, Ripeador de DVD y BluRay
  
  

Re: ¡Ah qué Kiko! (1987)

Notapor asavila01 » 2019-05-29- 4:25

wow de lujo no sabia de la existe en DVD
excelente trabajo muchas gracias

-- 2019-05-29- 1:25 --

wow de lujo no sabia de la existe en DVD
excelente trabajo muchas gracias
  • 0

He sido baneado :(
He sido baneado :(
Avatar de Usuario
asavila01
Costa Rica (cr)
Curioso
Curioso
 
Mensajes: 17
Registrado: 2018-03-01- 10:47
Dinero en mano: Bloqueado
última Visita: 2019-08-01- 6:11

Invitaciones enviadas: 0
Referencias: 0
Género: Hombre
Reputación: 10
Película o Serie Favorita: the flash
Progreso Membresía Plus:
13%
Progreso Membresía Premium: [progress2]0[/progress2]
Progreso Membresía Deluxe: [progress3]0[/progress3]
Trabajos realizados: Ninguno, Ripeador de DVD y BluRay
  
  

Re: ¡Ah qué Kiko! (1987)

Notapor ricotero29 » 2019-10-12- 20:37

Muchas gracias, no sabia que eran tan pocos capitulos de Ah que Kiko, recuerdo cuando lo pasaban en una canal de cable ya extinto aca en argentina que se llamaba Jupiter. Saludo.
  • 0

Membresía Básica
Membresía Básica
Avatar de Usuario
ricotero29
Argentina (ar)
Curioso
Curioso
 
Mensajes: 19
Registrado: 2018-10-21- 22:17
Dinero en mano: 16,658.00
última Visita: 2019-10-12- 20:42

Invitaciones enviadas: 0
Referencias: 0
Género: Hombre
Reputación: 0
Película o Serie Favorita: Volver al futuro
Progreso Membresía Plus:
26%
Progreso Membresía Premium: [progress2]0[/progress2]
Progreso Membresía Deluxe: [progress3]0[/progress3]
Trabajos realizados: Capturador de Televisión, Capturador de streaming (webrip), Sincronizador de audio, Editor de Audio, Creador de subtítulos
  
  


Tema Etiquetas

El Chavo del 8, Comedia, Kiko, Latino, 1987, Quico, México

Volver a Programas de Tv



¿Quién está conectado?

Usuarios navegando por este Foro: No hay usuarios registrados visitando el Foro y 0 invitados

Reputation System ©'