[Varios Idiomas] El Cerebro de Donovan (1953)

[Exclusivo] [Difícil]


[Exclusivo] [Difícil] El Cerebro de Donovan (1953)

Notapor seriépata » 2019-05-16- 0:08

[exclusivo] Imagen
Información General : 
[barra sinopsis]

Un millonario muere en un accidente de aviación cerca de la casa del profesor Patrick Cory, un científico que realiza experimentos sobre el cerebro. Cory decide extraer el cerebro del cadáver y mantenerlo vivo de manera artificial. Sin embargo, el cerebro se va adueñando progresivamente de la voluntad del científico cuando intenta comunicarse con él telepáticamente. (FILMAFFINITY)
[datos principales]

  • Título en español: El Cerebro de Donovan
  • Título Original: Donovan's Brain
  • País: EE.UU
  • Año: 1953
  • Dirección: Felix E. Feist
  • Reparto: Lew Ayres, Gene Evans, Nancy Davis, Steve Brodie, Tom Powers, Lisa Howard, James Anderson, Victor Sutherland, Michael Colgan, Peter Adams, Harlan Warde, Shimen Ruskin[/b]
  • Guión: Felix E. Feist, Hugh Brooke (Novel: Curt Siodmak)
  • Productora: Dowling Productions
  • Género: Ciencia ficción | Terror | Alcoholismo | Remake

    [barra trailer]
    Watch on youtube.com

MediaInfo : 
General
Unique ID : 235489195229067535357876669632499608812 (0xB12991BB7D9F9B2EB678FB54E856ECEC)
Complete name : D:\#GR\1953.Donovan's.Brain.VO-Latino.GeneraciónRetro.net-cinépata.mkv
Format : Matroska
Format version : Version 4 / Version 2
File size : 1.17 GiB
Duration : 1 h 23 min
Overall bit rate : 2 002 kb/s
Movie name : | cinépata |
Encoded date : UTC 2019-05-15 06:10:53
Writing application : mkvmerge v13.0.0 ('The Juggler') 64bit
Writing library : libebml v1.3.4 + libmatroska v1.4.5

Video
ID : 1
Format : MPEG-4 Visual
Format settings, BVOP : No
Format settings, QPel : No
Format settings, GMC : No warppoints
Format settings, Matrix : Default (H.263)
Codec ID : V_MS/VFW/FOURCC / DX50
Codec ID/Hint : DivX 5
Duration : 1 h 23 min
Bit rate : 1 616 kb/s
Nominal bit rate : 13.0 Mb/s
Width : 576 pixels
Height : 432 pixels
Display aspect ratio : 4:3
Frame rate mode : Constant
Frame rate : 23.976 (24000/1001) FPS
Color space : YUV
Chroma subsampling : 4:2:0
Bit depth : 8 bits
Scan type : Progressive
Compression mode : Lossy
Bits/(Pixel*Frame) : 0.271
Stream size : 965 MiB (81%)
Writing library : DivX 5.0.5 (UTC 2003-04-24)
Default : Yes
Forced : No

Audio
ID : 2
Format : AC-3
Format/Info : Audio Coding 3
Format settings, Endianness : Big
Codec ID : A_AC3
Duration : 1 h 23 min
Bit rate mode : Constant
Bit rate : 192 kb/s
Channel(s) : 2 channels
Channel positions : Front: L R
Sampling rate : 48.0 kHz
Frame rate : 31.250 FPS (1536 SPF)
Bit depth : 16 bits
Compression mode : Lossy
Stream size : 115 MiB (10%)
Title : Latino
Language : Spanish
Service kind : Complete Main
Default : Yes
Forced : No

Audio
ID : 3
Format : MPEG Audio
Format version : Version 1
Format profile : Layer 3
Mode : Joint stereo
Mode extension : MS Stereo
Codec ID : A_MPEG/L3
Codec ID/Hint : MP3
Duration : 1 h 23 min
Bit rate mode : Constant
Bit rate : 192 kb/s
Channel(s) : 2 channels
Sampling rate : 48.0 kHz
Frame rate : 41.667 FPS (1152 SPF)
Compression mode : Lossy
Stream size : 115 MiB (10%)
Title : Inglés
Writing library : LAME3.98r
Encoding settings : -m j -V 4 -q 2 -lowpass 18.6 -b 192
Language : English
Default : No
Forced : No

Text
ID : 4
Format : UTF-8
Codec ID : S_TEXT/UTF8
Codec ID/Info : UTF-8 Plain Text
Duration : 1 h 22 min
Bit rate : 68 b/s
Count of elements : 1172
Stream size : 41.7 KiB (0%)
Title : Español
Language : Spanish
Default : Yes
Forced : No

Capturas : 
Imagen
Imagen
Imagen
Imagen
Imagen
Imagen
  • 0

Membresía Premium
Membresía Premium
Avatar de Usuario
seriépata
Chile (cl)
Iniciado
Iniciado
 
Mensajes: 98
Registrado: 2018-04-10- 2:05
Dinero en mano: 173,574.50
última Visita: Ayer- 22:52
Género: Hombre
Reputación: 17
Película o Serie Favorita: The Twilight Zone
Progreso Membresía Plus:
100%
Progreso Membresía Premium:
100%
Progreso Membresía Deluxe:
50%
Trabajos realizados: Sincronizador de audio, Creador de subtítulos, Ripeador de DVD y BluRay
  
  

Advertisement

Tip1

El Cerebro de Donovan (1953)

Notapor Gretro Bot » 2019-05-16- 0:08

Gracias por tu aporte! :clapping:
Recuerda cuidar y mantener en linea tus enlaces, es responsabilidad de todos nosotros colaborar y asegurar en la felicidad de todos nuestros compañeros


Nota Importante:
TU SATISFACCIÓN NOS IMPORTA

Si este aporte tiene sus enlaces rotos, o la información no corresponde con lo descargado, no dudes en avisarnos,
Instrucciones:
haciendo click en el botón de exclamación, situado en la parte superior del primer mensaje:
Imagen

Si has gastado puntos en un aporte con links rotos, te vamos a restituir todos los puntos, con un 10% adicional en compensación por las molestias y nos preocuparemos en restituir los enlaces a la brevedad posible.
  • 0

Membresía de Prueba
Membresía de Prueba
Avatar de Usuario
Gretro Bot
Experto
Experto
 
Mensajes: 13385
Registrado: 2015-10-21- 12:15
Dinero en mano: 121,327.21
última Visita: 2018-11-02- 15:33
Género: No especificado
Reputación: 120
Progreso Membresía Deluxe:
  • Member’s introduction
  
  

Re: El Cerebro de Donovan (1953)

Notapor TwilightWolf » 2019-05-16- 5:28

Muchas gracias por este clásico.
  • 0

Membresía Plus
Membresía Plus
Avatar de Usuario
TwilightWolf
Spain (es)
Instruído
Instruído
 
Mensajes: 222
Registrado: 2017-12-15- 2:42
Dinero en mano: 12.50
Banco: 16,563.50
última Visita: Ayer- 20:02
Género: Hombre
Reputación: 13
Película o Serie Favorita: Goonies
Progreso Membresía Plus:
100%
Progreso Membresía Premium:
62%
Progreso Membresía Deluxe:
0%
Trabajos realizados: Ninguno
  
  

Re: El Cerebro de Donovan (1953)

Notapor seriépata » 2019-05-16- 15:07

TwilightWolf escribió:Muchas gracias por este clásico.


Gracias a ti por pasar y comentar, saludos! :D
  • 0

Membresía Premium
Membresía Premium
Avatar de Usuario
seriépata
Chile (cl)
Iniciado
Iniciado
 
Mensajes: 98
Registrado: 2018-04-10- 2:05
Dinero en mano: 173,574.50
última Visita: Ayer- 22:52
Género: Hombre
Reputación: 17
Película o Serie Favorita: The Twilight Zone
Progreso Membresía Plus:
100%
Progreso Membresía Premium:
100%
Progreso Membresía Deluxe:
50%
Trabajos realizados: Sincronizador de audio, Creador de subtítulos, Ripeador de DVD y BluRay
  
  


Tema Etiquetas

Latino, DUAL, Terror, Alcoholismo, 1953, Ciencia ficción, Remake

Volver a Películas (Live Action)



¿Quién está conectado?

Usuarios navegando por este Foro: No hay usuarios registrados visitando el Foro y 9 invitados

Reputation System ©'