[VOSE] Buck Rogers en el siglo XXV (1979)

[Exclusivo] [Normal]


[Exclusivo] [Normal] Buck Rogers en el siglo XXV (1979)

Notapor seriépata » 2019-05-17- 21:46

Imagen
Información General : 
[barra sinopsis]

En 1987, la NASA envía al espacio profundo la nave de prueba Ranger III. Por una lluvia de meteoritos, la nave se desvía de la órbita planeada y queda a la deriva por quinientos años. Su único ocupante, el capitán William "Buck" Rogers, es hallado en animación suspendida por una nave del Imperio Draconiano, en el año 2491. Una vez descongelado, el confundido Buck se entera que los Draconianos, un pueblo belicoso, planea un ataque e invasión sorpresa a la Tierra. Buck escapa en el Ranger III y llega a nuestro futurista mundo, donde es recibido con cierta desconfianza por las autoridades, pues sospechan que sea un espía del Imperio Draconiano. Pero conforme se adapta a este mundo del siglo XXV, va ganando amigos que prestan oidos a sus advertencias, justo cuando la nave "Draconia" está orbitando el planeta Tierra. (FILMAFFINITY)
[datos principales]

  • Título en español: Buck Rogers en el siglo XXV
  • Título Original: Buck Rogers in the 25th Century
  • País: EE.UU
  • Año: 1987
  • Dirección: Daniel Haller
  • Reparto: Gil Gerard, Pamela Hensley, Erin Gray, Henry Silva, Tim O'Connor, Duke Butler, Joseph Wiseman, John Dewey Carter, Caroline Smith, Felix Silla
  • Guión: Glen A. Larson, Leslie Stevens (Personajes: Philip Francis Nowlan)
  • Productora: Bruce Lansbury Productions / Glen A. Larson Productions / Universal Pictures
  • Género: Ciencia ficción | Aventuras | Fantástico | Aventura espacial | Viajes en el tiempo

    [barra trailer]
    Watch on youtube.com

MediaInfo : 
General
Unique ID : 179785769072050677589565419171866526948 (0x87417AC893980EB3A144D36A8880C4E4)
Complete name : D:\Buck.Rogers.in.the.25th.Century.1979.1080p.BluRay.x264.GeneraciónRetro.net-cinépata.mkv
Format : Matroska
Format version : Version 4 / Version 2
File size : 5.46 GiB
Duration : 1 h 24 min
Overall bit rate mode : Variable
Overall bit rate : 9 199 kb/s
Movie name : | GR-cinépata |
Encoded date : UTC 2019-05-16 04:12:43
Writing application : mkvmerge v13.0.0 ('The Juggler') 64bit
Writing library : libebml v1.3.4 + libmatroska v1.4.5

Video
ID : 1
Format : AVC
Format/Info : Advanced Video Codec
Format profile : High@L4.1
Format settings, CABAC : Yes
Format settings, RefFrames : 5 frames
Codec ID : V_MPEG4/ISO/AVC
Duration : 1 h 24 min
Bit rate : 8 751 kb/s
Width : 1 440 pixels
Height : 1 080 pixels
Display aspect ratio : 4:3
Frame rate mode : Constant
Frame rate : 25.000 FPS
Color space : YUV
Chroma subsampling : 4:2:0
Bit depth : 8 bits
Scan type : Progressive
Bits/(Pixel*Frame) : 0.225
Stream size : 5.19 GiB (95%)
Writing library : x264 core 152 r2851 ba24899
Encoding settings : cabac=1 / ref=5 / deblock=1:-3:-3 / analyse=0x3:0x113 / me=umh / subme=8 / psy=1 / psy_rd=1.00:0.25 / mixed_ref=1 / me_range=24 / chroma_me=1 / trellis=1 / 8x8dct=1 / cqm=0 / deadzone=21,11 / fast_pskip=1 / chroma_qp_offset=-4 / threads=30 / lookahead_threads=5 / sliced_threads=0 / nr=0 / decimate=1 / interlaced=0 / bluray_compat=0 / constrained_intra=0 / bframes=3 / b_pyramid=2 / b_adapt=1 / b_bias=0 / direct=3 / weightb=1 / open_gop=0 / weightp=2 / keyint=240 / keyint_min=24 / scenecut=40 / intra_refresh=0 / rc_lookahead=50 / rc=2pass / mbtree=1 / bitrate=8751 / ratetol=1.0 / qcomp=0.60 / qpmin=0 / qpmax=69 / qpstep=4 / cplxblur=20.0 / qblur=0.5 / ip_ratio=1.40 / aq=1:0.75
Default : Yes
Forced : No

Audio
ID : 2
Format : FLAC
Format/Info : Free Lossless Audio Codec
Codec ID : A_FLAC
Duration : 1 h 24 min
Bit rate mode : Variable
Bit rate : 447 kb/s
Channel(s) : 2 channels
Channel positions : Front: L R
Sampling rate : 48.0 kHz
Frame rate : 11.719 FPS (4096 SPF)
Bit depth : 16 bits
Stream size : 271 MiB (5%)
Title : Inglés
Writing library : libFLAC 1.2.1 (UTC 2007-09-17)
Language : English
Default : Yes
Forced : No

Text
ID : 3
Format : UTF-8
Codec ID : S_TEXT/UTF8
Codec ID/Info : UTF-8 Plain Text
Duration : 1 h 21 min
Bit rate : 67 b/s
Count of elements : 989
Stream size : 40.4 KiB (0%)
Title : Español
Language : Spanish
Default : Yes
Forced : No

Menu
00:00:00.000 : en:00:00:00.000
00:04:19.840 : en:00:04:19.840
00:11:12.280 : en:00:11:12.280
00:20:04.760 : en:00:20:04.760
00:29:16.960 : en:00:29:16.960
00:37:04.040 : en:00:37:04.040
00:43:16.920 : en:00:43:16.920
00:50:11.040 : en:00:50:11.040
00:59:39.280 : en:00:59:39.280
01:12:36.760 : en:01:12:36.760
01:20:04.240 : en:01:20:04.240
01:21:33.920 : en:01:21:33.920

Capturas : 
Imagen
Imagen
Imagen
Imagen
Imagen
  • 0

Aportador Captura de Imagen
seriépata
Puntos Obtenidos 0
Idioma(s) Inglés
Idioma(s) de los Subtítulos incluídos Español
Episodios 1
Temporadas N/A
Serie completa No
Captura de video N/A
Captura de audio N/A
Sincronización N/A
Montaje HD A quien corresponda
Autor subtítulos A quien corresponda
Formato del archivo MKV
Fuente del audio BDRip
Calidad ligera No
Resolución ≈ 1920x1080
Servidor MEGA
Tamaño Aprox. 5.4 Gb
Lista de episodios compartidos del aporte/Comentarios
Espero que la disfruten. Saludos
Audiencia Dirigida Enlaces
Tienes que contestar el mensaje,
agradeciendo o dando tu opinión para ver el enlace
Última modificación seriépata - 2019-05-17- 21:46
Membresía Plus
Membresía Plus
Avatar de Usuario
seriépata
Chile (cl)
Iniciado
Iniciado
 
Mensajes: 48
Registrado: 2018-04-10- 2:05
Dinero en mano: 172,849.50
última Visita: Hoy- 5:17

Invitaciones enviadas: 0
Referencias: 0
Género: Hombre
Reputación: 12
Película o Serie Favorita: The Twilight Zone
Progreso Membresía Plus:
100%
Progreso Membresía Premium:
88%
Progreso Membresía Deluxe:
0%
Trabajos realizados: Sincronizador de audio, Creador de subtítulos, Ripeador de DVD y BluRay
  
  

Advertisement

Tip1

Buck Rogers en el siglo XXV (1979)

Notapor Gretro Bot » 2019-05-17- 21:46

Gracias por tu aporte! :clapping:
Recuerda cuidar y mantener en linea tus enlaces, es responsabilidad de todos nosotros colaborar y asegurar en la felicidad de todos nuestros compañeros


Nota Importante:
TU SATISFACCIÓN NOS IMPORTA

Si este aporte tiene sus enlaces rotos, o la información no corresponde con lo descargado, no dudes en avisarnos,
Instrucciones:
haciendo click en el botón de exclamación, situado en la parte superior del primer mensaje:
Imagen

Si has gastado puntos en un aporte con links rotos, te vamos a restituir todos los puntos, con un 10% adicional en compensación por las molestias y nos preocuparemos en restituir los enlaces a la brevedad posible.
  • 0

Membresía de Prueba
Membresía de Prueba
Avatar de Usuario
Gretro Bot
Experto
Experto
 
Mensajes: 12889
Registrado: 2015-10-21- 12:15
Dinero en mano: 121,327.21
última Visita: 2018-11-02- 15:33

Invitaciones enviadas: 0
Referencias: 1
Género: No especificado
Reputación: 105
Progreso Membresía Deluxe:
  • Member’s introduction
  
  


Tema Etiquetas

Aventura espacial, VOSE, ciencia ficción, 1979, 1080p, Buck Roger, Viajes en el tiempo

Volver a Películas (Live Action)



¿Quién está conectado?

Usuarios navegando por este Foro: Google [Bot] y 13 invitados

Reputation System ©'