[Mudo] Alas (1927)

[Exclusivo] [Normal]


[Exclusivo] [Normal] Alas (1927)

Notapor seriépata » 2019-06-17- 1:17

[exclusivo] Imagen
Información General : 
[barra sinopsis]

Jack Powell (Charles Rogers), un joven que vive en una pequeña ciudad de Estados Unidos en 1917, está enamorado de la sofisticada Sylvia Lewis (Jobyna Ralston) y se siente irritado por las constantes atenciones de la chica de la casa de al lado, Mary Preston (Clara Bown), Sylvia está a su vez enamorada del rico heredero David Armstrong (Richard Arlen), aunque su relación se ve interrumpida cuando los dos jóvenes se alistan en el Ejército. Tras un periodo de enfrentamiento, entran en las Fuerzas Aéreas y Jack y David conocen al cadete White (Gary Cooper), quien les sirve de inspiración para sus futuros combates aéreos.

Drama bélico que ha pasado a la historia por ser el primer film que ganó el Óscar a la mejor película, el año de la creación de los premios de la Academia americana (años 1927-1928). (FILMAFFINITY)

[datos principales]

  • Título en español: Alas
  • Título Original: Wings
  • País: EE.UU
  • Año: 1927
  • Dirección: William A. Wellman
  • Guión: Hope Loring, Louis D. Lighton (Historia: John Monk Saunders)
  • Reparto: Clara Bow, Charles Rogers, Richard Arlen, Gary Cooper, Jobyna Ralston, El Brendel, Arlette Marchal
  • Productora: Paramount Pictures
  • Género: Bélico | Acción | Drama | I Guerra Mundial | Aviones | Ejército | Amistad | Cine mudo

    [barra trailer]
    Watch on youtube.com

MediaInfo : 
General
Unique ID : 184685948453028323354916395290275055824 (0x8AF13847A6F0DCC79637E039C6D788D0)
Complete name : D:Wings.1927.1080p.BRip.GenareaciónRetro.net-seriépata.mkv
Format : Matroska
Format version : Version 4 / Version 2
File size : 9.84 GiB
Duration : 2 h 24 min
Overall bit rate : 9 761 kb/s
Movie name : | GR-seriépata |
Encoded date : UTC 2019-05-25 15:41:35
Writing application : mkvmerge v13.0.0 ('The Juggler') 64bit
Writing library : libebml v1.3.4 + libmatroska v1.4.5

Video
ID : 1
Format : AVC
Format/Info : Advanced Video Codec
Format profile : High@L4
Format settings, CABAC : Yes
Format settings, RefFrames : 4 frames
Codec ID : V_MPEG4/ISO/AVC
Duration : 2 h 24 min
Bit rate : 8 251 kb/s
Width : 1 440 pixels
Height : 1 080 pixels
Display aspect ratio : 4:3
Frame rate mode : Constant
Frame rate : 23.976 FPS
Color space : YUV
Chroma subsampling : 4:2:0
Bit depth : 8 bits
Scan type : Progressive
Bits/(Pixel*Frame) : 0.221
Stream size : 8.31 GiB (85%)
Title : Video
Writing library : x264 core 125 r2200 999b753
Encoding settings : cabac=1 / ref=4 / deblock=1:0:0 / analyse=0x3:0x133 / me=umh / subme=7 / psy=1 / psy_rd=1.00:0.00 / mixed_ref=1 / me_range=16 / chroma_me=1 / trellis=1 / 8x8dct=1 / cqm=0 / deadzone=21,11 / fast_pskip=0 / chroma_qp_offset=-2 / threads=12 / lookahead_threads=2 / sliced_threads=0 / nr=0 / decimate=1 / interlaced=0 / bluray_compat=0 / constrained_intra=0 / bframes=3 / b_pyramid=2 / b_adapt=2 / b_bias=0 / direct=3 / weightb=1 / open_gop=0 / weightp=2 / keyint=250 / keyint_min=23 / scenecut=40 / intra_refresh=0 / rc_lookahead=50 / rc=2pass / mbtree=1 / bitrate=8251 / ratetol=1.0 / qcomp=0.60 / qpmin=0 / qpmax=69 / qpstep=4 / cplxblur=20.0 / qblur=0.5 / ip_ratio=1.40 / aq=1:1.00
Language : English
Default : Yes
Forced : Yes

Audio
ID : 2
Format : DTS
Format/Info : Digital Theater Systems
Mode : 16
Format settings, Endianness : Big
Codec ID : A_DTS
Duration : 2 h 24 min
Bit rate mode : Constant
Bit rate : 1 509 kb/s
Channel(s) : 6 channels
Channel positions : Front: L C R, Side: L R, LFE
Sampling rate : 48.0 kHz
Frame rate : 93.750 FPS (512 SPF)
Bit depth : 24 bits
Compression mode : Lossy
Stream size : 1.52 GiB (15%)
Title : Inglés DTS
Language : English
Default : Yes
Forced : Yes

Text
ID : 3
Format : UTF-8
Codec ID : S_TEXT/UTF8
Codec ID/Info : UTF-8 Plain Text
Duration : 2 h 18 min
Bit rate : 17 b/s
Count of elements : 396
Stream size : 17.8 KiB (0%)
Title : Español
Language : Spanish
Default : Yes
Forced : No

Capturas : 
Imagen
Imagen
Imagen
Imagen
Imagen
Imagen
Imagen
Imagen
Imagen
  • 0

Última edición por seriépata el 2019-06-17- 1:19, editado 1 vez en total
Membresía Premium
Membresía Premium
Avatar de Usuario
seriépata
Chile (cl)
Instruído
Instruído
 
Mensajes: 151
Registrado: 2018-04-10- 2:05
Dinero en mano: 269,884.50
última Visita: Hoy- 3:50

Invitaciones enviadas: 0
Referencias: 0
Género: Hombre
Reputación: 34
Película o Serie Favorita: The Twilight Zone
Progreso Membresía Plus:
100%
Progreso Membresía Premium:
100%
Progreso Membresía Deluxe:
56%
Trabajos realizados: Sincronizador de audio, Creador de subtítulos, Ripeador de DVD y BluRay
  
  

Advertisement

Tip1

Alas (1922)

Notapor Gretro Bot » 2019-06-17- 1:17

Gracias por tu aporte! :clapping:
Recuerda cuidar y mantener en linea tus enlaces, es responsabilidad de todos nosotros colaborar y asegurar en la felicidad de todos nuestros compañeros


Nota Importante:
TU SATISFACCIÓN NOS IMPORTA

Si este aporte tiene sus enlaces rotos, o la información no corresponde con lo descargado, no dudes en avisarnos,
Instrucciones:
haciendo click en el botón de exclamación, situado en la parte superior del primer mensaje:
Imagen

Si has gastado puntos en un aporte con links rotos, te vamos a restituir todos los puntos, con un 10% adicional en compensación por las molestias y nos preocuparemos en restituir los enlaces a la brevedad posible.
  • 0

Membresía de Prueba
Membresía de Prueba
Avatar de Usuario
Gretro Bot
Experto
Experto
 
Mensajes: 14430
Registrado: 2015-10-21- 12:15
Dinero en mano: 121,327.21
última Visita: 2018-11-02- 15:33

Invitaciones enviadas: 0
Referencias: 1
Género: No especificado
Reputación: 128
Progreso Membresía Deluxe:
  • Member’s introduction
  
  

Re: Alas (1927)

Notapor AndyCG » 2019-11-11- 0:49

nunca he escuchado es ta peli gracias
  • 0

Membresía Premium
Membresía Premium
Avatar de Usuario
AndyCG
Ecuador (ec)
Experto
Experto
 
Mensajes: 1047
Registrado: 2019-10-06- 17:43
Dinero en mano: 16,178.50
última Visita: Ayer- 21:20
Invitado por: Tony Hankypants
Referencias por: Tony Hankypants

Invitaciones enviadas: 0
Referencias: 0
Género: Hombre
Reputación: 4
Película o Serie Favorita: Flash
Progreso Membresía Plus:
39%
Progreso Membresía Premium: [progress2]0[/progress2]
Progreso Membresía Deluxe: [progress3]0[/progress3]
Trabajos realizados: Capturador de VHS/Betamax, Sincronizador de audio, Editor de Audio
  
  

Re: Alas (1927)

Notapor seriépata » 2019-11-11- 15:55

AndyCG escribió:nunca he escuchado es ta peli gracias


Hola Andy, gracias por reportar. El problema eran unos links duplicados dañados que arrastre por casualidad. Todo corregido. Gracias por pasar y comentar acerca de esta película, primera ganadora del Óscar a mejor película, espero puedas disfrutarla. De paso, tu aviso me sirve para chequear todos los links de mis aportes que haré hoy día mismo. Saludos! ;)

Imagen
  • 0

Membresía Premium
Membresía Premium
Avatar de Usuario
seriépata
Chile (cl)
Instruído
Instruído
 
Mensajes: 151
Registrado: 2018-04-10- 2:05
Dinero en mano: 269,884.50
última Visita: Hoy- 3:50

Invitaciones enviadas: 0
Referencias: 0
Género: Hombre
Reputación: 34
Película o Serie Favorita: The Twilight Zone
Progreso Membresía Plus:
100%
Progreso Membresía Premium:
100%
Progreso Membresía Deluxe:
56%
Trabajos realizados: Sincronizador de audio, Creador de subtítulos, Ripeador de DVD y BluRay
  
  

Re: Alas (1927)

Notapor AndyCG » 2019-11-11- 17:20

seriépata escribió:
AndyCG escribió:nunca he escuchado es ta peli gracias


Hola Andy, gracias por reportar. El problema eran unos links duplicados dañados que arrastre por casualidad. Todo corregido. Gracias por pasar y comentar acerca de esta película, primera ganadora del Óscar a mejor película, espero puedas disfrutarla. De paso, tu aviso me sirve para chequear todos los links de mis aportes que haré hoy día mismo. Saludos! ;)

Imagen


que bien, y gracias a ti por el dato del oscar lono sabia ;)
  • 0

Membresía Premium
Membresía Premium
Avatar de Usuario
AndyCG
Ecuador (ec)
Experto
Experto
 
Mensajes: 1047
Registrado: 2019-10-06- 17:43
Dinero en mano: 16,178.50
última Visita: Ayer- 21:20
Invitado por: Tony Hankypants
Referencias por: Tony Hankypants

Invitaciones enviadas: 0
Referencias: 0
Género: Hombre
Reputación: 4
Película o Serie Favorita: Flash
Progreso Membresía Plus:
39%
Progreso Membresía Premium: [progress2]0[/progress2]
Progreso Membresía Deluxe: [progress3]0[/progress3]
Trabajos realizados: Capturador de VHS/Betamax, Sincronizador de audio, Editor de Audio
  
  


Tema Etiquetas

Bélica, Amistad, Aviones, MEGA, VOSE, 1927, I Guerra Mundial, 1080p

Volver a Películas (Live Action)



¿Quién está conectado?

Usuarios navegando por este Foro: Google [Bot] y 11 invitados

Reputation System ©'