[VOSE] Buck Rogers (1939)  Serie Completa

[Exclusivo] [Normal]


Reglas del Foro
- Responde los mensajes de manera correcta. mensajes cortos serán eliminados y el usuario será excluido de la página. :banned2:
Tus 30 segundos de dedicación no se comparan al tiempo que tardó el autor en subir y compartir contigo ese aporte.

Ejemplos de buena práctica: :drunk:
¿Que te recuerda este aporte?
¿Dónde recuerdas que lo transmitieron o lo viste?
¿Qué es lo que más te gusta de ese aporte?


- Recuerda puntuar y dar gracias por el aporte :clapping:
Imagen

Agradecer no cuesta nada, pero subir una serie si

[Exclusivo] [Normal] Buck Rogers (1939)  Serie Completa

Notapor seriépata » 2019-07-12- 2:12

[exclusivo] Imagen
Información General : 
[barra sinopsis]

La historia es muy sencilla: durante un arriesgado viaje en dirigible sobre el Polo Norte estalla una tormenta y Buck Rogers y su tripulación se ven obligados a aterrizar. Dos de los pilotos escapan pero Buck y su joven amigo Buddy (Jackie Moran) quedan en estado de animación suspendida al utilizar el gas Nirvano en la esperanza de sobrevivir hasta que llegue una partida de rescate. Sin embargo, el dirigible acaba sepultado por una avalancha y permanece enterrado durante quinientos años. En el año 2440 los encuentra y reanima una patrulla de la Ciudad Oculta, el último refugio de la gente honrada en una Tierra ahora dominada por el dictatorial líder criminal Killer Kane (Anthony Warde). Buck, Buddy, la piloto Wilma Deering (Constance Moore), las fuerzas rebeldes de Ciudad Oculta lideradas por el Doctor Huer y unos saturninos de cultura medieval se alían para derrocar al tirano. Como no podía ser de otra manera, Buck Rogers saldría airoso de todos los desafíos para ser nombrado Guardián Protector del planeta.

Lo que tenemos aquí es una historia de corte distópico con pinceladas de viaje interplanetario y temporal. Como todos los seriales, el argumento era poco sutil y se centraba exclusivamente en la acción. Así, por ejemplo, Buck y Buddy no se sorprenden demasiado al despertar cinco siglos después, sino que, sin más averiguaciones, se ofrecen inmediatamente voluntarios para luchar contra Kane. No hay momentos dedicados al sentimiento o la reflexión.

[datos principales]

  • Título Original: Buck Rogers
  • País: EE.UU
  • Año: 1939
  • Dirección: Ford Beebe, Saul A. Goodkind
  • Reparto: Buster Crabbe, Constance Moore, Jackie Moran, Jack Mulhall, Anthony Warde, Philson Ahn, C. Montague Shaw, Guy Usher, William Gould, Henry Brandon, Wheeler Oakman, Kenne Duncan, Carleton Young, Reed Howes, Wade Boteler, Al Bridge
  • Guión: Norman S. Hall, Ray Trampe (Cómic: Dick Calkins, Philip Francis Nowlan)
  • Productora: Universal Pictures
  • Género: Serial | Ciencia ficción | Aventuras | Aventura espacial
  • Temporadas: 1
  • Capítulos Totales: 12

    [barra trailer]
    Watch on youtube.com

Lista de Capítulos : 
Temporada 1

Buck Rogers - 01 - Tomorrow's World.avi 255,85 MB
Buck Rogers - 02 - Tragedy on Saturn.avi 258,70 MB
Buck Rogers - 03 - Enemy's Stronghold.avi 253,26 MB
Buck Rogers - 04 - The Sky Patrol.avi 247,49 MB
Buck Rogers - 05 - The Phantom Plane.avi 244,47 MB
Buck Rogers - 06 - The Unknown.avi 228,02 MB
Buck Rogers - 07 - Primitive Urge.avi 226,93 MB
Buck Rogers - 08 - Revolt of the Zuggs.avi 230,36 MB
Buck Rogers - 09 - Bodies Without Minds.avi 241,15 MB
Buck Rogers - 10 - Broken Barriers.avi 215,86 MB
Buck Rogers - 11 - A Prince in Bondage.avi 252,49 MB
Buck Rogers - 12 - War of the Planets.avi 241,05 MB

MediaInfo : 
General
Complete name : D:\#GR\Buck Rogers - 01 - Tomorrow's World.avi
Format : AVI
Format/Info : Audio Video Interleave
File size : 256 MiB
Duration : 20 min 59 s
Overall bit rate : 1 704 kb/s
IsTruncated : Yes

Video
ID : 0
Format : MPEG-4 Visual
Format profile : Simple@L3
Format settings, BVOP : No
Format settings, QPel : No
Format settings, GMC : No warppoints
Format settings, Matrix : Default (H.263)
Codec ID : XVID
Codec ID/Hint : XviD
Duration : 20 min 59 s
Source duration : 20 min 59 s
Bit rate : 1 500 kb/s
Width : 640 pixels
Height : 480 pixels
Display aspect ratio : 4:3
Frame rate : 29.970 (30000/1001) FPS
Color space : YUV
Chroma subsampling : 4:2:0
Bit depth : 8 bits
Scan type : Progressive
Compression mode : Lossy
Bits/(Pixel*Frame) : 0.163
Stream size : 225 MiB (88%)
Writing library : XviD 1.1.2 (UTC 2006-11-01)

Audio
ID : 1
Format : AC-3
Format/Info : Audio Coding 3
Format settings, Endianness : Big
Codec ID : 2000
Duration : 20 min 59 s
Bit rate mode : Constant
Bit rate : 192 kb/s
Channel(s) : 2 channels
Channel positions : Front: L R
Sampling rate : 48.0 kHz
Frame rate : 31.250 FPS (1536 SPF)
Bit depth : 16 bits
Compression mode : Lossy
Stream size : 28.8 MiB (11%)
Alignment : Aligned on interleaves
Interleave, duration : 32 ms (0.96 video frame)
Service kind : Complete Main

Capturas : 
Imagen
Imagen
Imagen
Imagen
Imagen
Imagen
Imagen
Imagen
  • 0

Membresía Premium
Membresía Premium
Avatar de Usuario
seriépata
Chile (cl)
Iniciado
Iniciado
 
Mensajes: 98
Registrado: 2018-04-10- 2:05
Dinero en mano: 173,574.50
última Visita: Ayer- 22:52
Género: Hombre
Reputación: 17
Película o Serie Favorita: The Twilight Zone
Progreso Membresía Plus:
100%
Progreso Membresía Premium:
100%
Progreso Membresía Deluxe:
50%
Trabajos realizados: Sincronizador de audio, Creador de subtítulos, Ripeador de DVD y BluRay
  
  

Advertisement

Tip1

Buck Rogers (1939)

Notapor Gretro Bot » 2019-07-12- 2:12

Gracias por tu aporte! :clapping:
Recuerda cuidar y mantener en linea tus enlaces, es responsabilidad de todos nosotros colaborar y asegurar en la felicidad de todos nuestros compañeros


Nota Importante:
TU SATISFACCIÓN NOS IMPORTA

Si este aporte tiene sus enlaces rotos, o la información no corresponde con lo descargado, no dudes en avisarnos,
Instrucciones:
haciendo click en el botón de exclamación, situado en la parte superior del primer mensaje:
Imagen

Si has gastado puntos en un aporte con links rotos, te vamos a restituir todos los puntos, con un 10% adicional en compensación por las molestias y nos preocuparemos en restituir los enlaces a la brevedad posible.
  • 0

Membresía de Prueba
Membresía de Prueba
Avatar de Usuario
Gretro Bot
Experto
Experto
 
Mensajes: 13385
Registrado: 2015-10-21- 12:15
Dinero en mano: 121,327.21
última Visita: 2018-11-02- 15:33
Género: No especificado
Reputación: 120
Progreso Membresía Deluxe:
  • Member’s introduction
  
  


Volver a Series de Tv (Live Action)



¿Quién está conectado?

Usuarios navegando por este Foro: No hay usuarios registrados visitando el Foro y 0 invitados

Reputation System ©'