[Varios Idiomas] Darling (1965)

[Exclusivo] [Inédito]


[Exclusivo] [Inédito] Darling (1965)

Notapor seriépata » 2019-07-12- 22:20

[exclusivo] Imagen
Información General : 
[barra sinopsis]

Diana Scott (Julie Christie) es una joven y atractiva modelo londinense, una mujer ambiciosa dispuesta a todo para ascender en la escala social. (FILMAFFINITY)

1965: 3 Oscars: mejor actriz (Christie), guión original y vestuario (Ex-aequo). 5 nom.
1965: Globo de Oro: Mejor película extranjera (Samuel Goldwyn Award). 3 nom.
1965: Premios BAFTA: 4 premios incluyendo Mejor actor británico y actriz británica
1965: Círculo de críticos de Nueva York: Mejor película, director y actriz (Christie)
1965: Sindicato de Directores (DGA): Nominada a Mejor director
1965: National Board of Review: Top 10 mejores películas y director (FILMAFFINITY)

[datos principales]

  • Título en español: Querida!
  • Título Original: Darling
  • País: Reino Unido
  • Año: 1965
  • Dirección: John Schlesinger
  • Guión: Frederic Raphael (Idea: Frederic Raphael, John Schlesinger, Joseph Janni)
  • Reparto: Julie Christie, Dirk Bogarde, Laurence Harvey, Roland Curram, Alex Scott, José Luis de Vilallonga
  • Productora: Joseph Janni Production / Vic Films Productions Ltd / Appia Films Ltd.
  • Género: Drama | Romance | Free Cinema | Sátira | Comedia dramática | Drama romántico

    [barra trailer]
    Watch on youtube.com

MediaInfo : 
General
Unique ID : 189623155245601327065430967056540891482 (0x8EA8175E5DD65E61A1DD52C1CAC7F95A)
Complete name : D:\1965 Darling [MKV][720x576][VO-CAS][SS].mkv
Format : Matroska
Format version : Version 4 / Version 2
File size : 3.61 GiB
Duration : 2 h 2 min
Overall bit rate mode : Variable
Overall bit rate : 4 219 kb/s
Movie name : | GR-seriépata |
Encoded date : UTC 2019-07-12 20:25:39
Writing application : mkvmerge v13.0.0 ('The Juggler') 64bit
Writing library : libebml v1.3.4 + libmatroska v1.4.5

Video
ID : 1
Format : MPEG Video
Format version : Version 2
Format profile : Main@Main
Format settings, BVOP : Yes
Format settings, Matrix : Custom
Format settings, GOP : M=3, N=12
Format settings, picture struc : Frame
Codec ID : V_MPEG2
Codec ID/Info : MPEG 1 or 2 Video
Duration : 2 h 2 min
Bit rate mode : Variable
Bit rate : 3 830 kb/s
Maximum bit rate : 6 000 kb/s
Width : 720 pixels
Height : 576 pixels
Display aspect ratio : 16:9
Frame rate mode : Constant
Frame rate : 25.000 FPS
Standard : PAL
Color space : YUV
Chroma subsampling : 4:2:0
Bit depth : 8 bits
Scan type : Interlaced
Scan order : Top Field First
Compression mode : Lossy
Bits/(Pixel*Frame) : 0.369
Time code of first frame : 00:00:00:00
Time code source : Group of pictures header
GOP, Open/Closed : Open
GOP, Open/Closed of first fram : Closed
Stream size : 3.28 GiB (91%)
Default : Yes
Forced : No

Audio -->
ID : 2
Format : AC-3
Format/Info : Audio Coding 3
Format settings, Endianness : Big
Codec ID : A_AC3
Duration : 2 h 2 min
Bit rate mode : Constant
Bit rate : 192 kb/s
Channel(s) : 2 channels
Channel positions : Front: L R
Sampling rate : 48.0 kHz
Frame rate : 31.250 FPS (1536 SPF)
Bit depth : 16 bits
Compression mode : Lossy
Stream size : 168 MiB (5%)
Title : Inglés
Language : English
Service kind : Complete Main
Default : Yes
Forced : No

Audio -->
ID : 3
Format : AC-3
Format/Info : Audio Coding 3
Format settings, Endianness : Big
Codec ID : A_AC3
Duration : 2 h 2 min
Bit rate mode : Constant
Bit rate : 192 kb/s
Channel(s) : 2 channels
Channel positions : Front: L R
Sampling rate : 48.0 kHz
Frame rate : 31.250 FPS (1536 SPF)
Bit depth : 16 bits
Compression mode : Lossy
Stream size : 168 MiB (5%)
Title : Castellano
Language : Spanish
Service kind : Complete Main
Default : No
Forced : No

Text -->
ID : 4
Format : UTF-8
Codec ID : S_TEXT/UTF8
Codec ID/Info : UTF-8 Plain Text
Duration : 1 h 57 min
Bit rate : 62 b/s
Count of elements : 1304
Stream size : 54.2 KiB (0%)
Title : Español
Language : Spanish
Default : Yes
Forced : No

Text -->
ID : 5
Format : UTF-8
Codec ID : S_TEXT/UTF8
Codec ID/Info : UTF-8 Plain Text
Duration : 1 h 57 min
Bit rate : 67 b/s
Count of elements : 1660
Stream size : 58.1 KiB (0%)
Title : Inglés
Language : English
Default : No
Forced : No

Capturas : 
Imagen
Imagen
Imagen
Imagen
Imagen
Imagen
Imagen
  • 0

Membresía Premium
Membresía Premium
Avatar de Usuario
seriépata
Chile (cl)
Iniciado
Iniciado
 
Mensajes: 109
Registrado: 2018-04-10- 2:05
Dinero en mano: 243,579.50
última Visita: Hoy- 2:05

Invitaciones enviadas: 0
Referencias: 0
Género: Hombre
Reputación: 33
Película o Serie Favorita: The Twilight Zone
Progreso Membresía Plus:
100%
Progreso Membresía Premium:
100%
Progreso Membresía Deluxe:
56%
Trabajos realizados: Sincronizador de audio, Creador de subtítulos, Ripeador de DVD y BluRay
  
  

Advertisement

Tip1

Darling (1965)

Notapor Gretro Bot » 2019-07-12- 22:20

Gracias por tu aporte! :clapping:
Recuerda cuidar y mantener en linea tus enlaces, es responsabilidad de todos nosotros colaborar y asegurar en la felicidad de todos nuestros compañeros


Nota Importante:
TU SATISFACCIÓN NOS IMPORTA

Si este aporte tiene sus enlaces rotos, o la información no corresponde con lo descargado, no dudes en avisarnos,
Instrucciones:
haciendo click en el botón de exclamación, situado en la parte superior del primer mensaje:
Imagen

Si has gastado puntos en un aporte con links rotos, te vamos a restituir todos los puntos, con un 10% adicional en compensación por las molestias y nos preocuparemos en restituir los enlaces a la brevedad posible.
  • 0

Membresía de Prueba
Membresía de Prueba
Avatar de Usuario
Gretro Bot
Experto
Experto
 
Mensajes: 14246
Registrado: 2015-10-21- 12:15
Dinero en mano: 121,327.21
última Visita: 2018-11-02- 15:33

Invitaciones enviadas: 0
Referencias: 1
Género: No especificado
Reputación: 125
Progreso Membresía Deluxe:
  • Member’s introduction
  
  


Volver a Películas (Live Action)



¿Quién está conectado?

Usuarios navegando por este Foro: No hay usuarios registrados visitando el Foro y 8 invitados

Reputation System ©'