[Varios Idiomas] Grand Hotel (1932)

[Exclusivo] [Inédito]


[Exclusivo] [Inédito] Grand Hotel (1932)

Notapor seriépata » 2020-01-12- 23:19

[exclusivo] [coleccion]
Imagen
Información General : 
[barra sinopsis]

Las diferentes historias de los huéspedes de un elegante hotel es el argumento de este film de brillante reparto. Obtuvo tan sólo un Oscar, pero fue el de mejor película. (FILMAFFINITY)
[datos principales]

  • Título en español: Gran Hotel
  • Título Original: Grand Hotel
  • País: EE.UU
  • Año: 1932
  • Dirección: Edmund Goulding
  • Guión: William A. Drake (Novela: Vicki Baum)
  • Reparto: Greta Garbo, John Barrymore, Joan Crawford, Wallace Beery, Lionel Barrymore, Jean Hersholt, Robert McWade, Tully Marshall, Purnell Pratt
  • Productora: Metro-Goldwyn-Mayer (MGM)
  • Género: Drama | Melodrama | Historias cruzadas

    [barra trailer]
    Watch on youtube.com

MediaInfo : 
General
Unique ID : 239285935364741875739305970100652262113 (0xB404CB79417B5F598E3DB12A40D0C2E1)
Complete name : D:\Grand.Hotel.1932.720p.CAS-VO.Subs-generacionretro.net.mkv
Format : Matroska
Format version : Version 4 / Version 2
File size : 3.96 GiB
Duration : 1 h 48 min
Overall bit rate mode : Variable
Overall bit rate : 5 251 kb/s
Movie name : | GR-seriépata |
Encoded date : UTC 2019-05-30 07:39:53
Writing application : mkvmerge v13.0.0 ('The Juggler') 64bit
Writing library : libebml v1.3.4 + libmatroska v1.4.5

Video
ID : 1
Format : MPEG Video
Format version : Version 2
Format profile : [email protected]
Format settings, BVOP : Yes
Format settings, Matrix : Custom
Format settings, GOP : M=3, N=15
Codec ID : V_MPEG2
Codec ID/Info : MPEG 1 or 2 Video
Duration : 1 h 48 min
Bit rate mode : Variable
Bit rate : 4 990 kb/s
Maximum bit rate : 7 500 kb/s
Width : 720 pixels
Height : 576 pixels
Display aspect ratio : 4:3
Frame rate mode : Constant
Frame rate : 25.000 FPS
Standard : PAL
Color space : YUV
Chroma subsampling : 4:2:0
Bit depth : 8 bits
Scan type : Progressive
Scan order : Top Field First
Compression mode : Lossy
Bits/(Pixel*Frame) : 0.481
Time code of first frame : 00:00:00:00
Time code source : Group of pictures header
GOP, Open/Closed : Open
GOP, Open/Closed of first fram : Closed
Stream size : 3.76 GiB (95%)
Default : Yes
Forced : No

Audio
ID : 2
Format : AC-3
Format/Info : Audio Coding 3
Format settings, Endianness : Big
Codec ID : A_AC3
Duration : 1 h 48 min
Bit rate mode : Constant
Bit rate : 192 kb/s
Channel(s) : 1 channel
Channel positions : Front: C
Sampling rate : 48.0 kHz
Frame rate : 31.250 FPS (1536 SPF)
Bit depth : 16 bits
Compression mode : Lossy
Stream size : 148 MiB (4%)
Title : Inglés
Language : English
Service kind : Complete Main
Default : No
Forced : No

Audio
ID : 3
Format : MPEG Audio
Format version : Version 1
Format profile : Layer 3
Codec ID : A_MPEG/L3
Codec ID/Hint : MP3
Duration : 1 h 48 min
Bit rate mode : Constant
Bit rate : 64.0 kb/s
Channel(s) : 1 channel
Sampling rate : 48.0 kHz
Frame rate : 41.667 FPS (1152 SPF)
Compression mode : Lossy
Stream size : 49.4 MiB (1%)
Title : Español
Writing library : LAME3.97b
Encoding settings : -m m -V 4 -q 2 -lowpass 16.5 -b 64
Language : Spanish
Default : Yes
Forced : No

Text
ID : 4
Format : UTF-8
Codec ID : S_TEXT/UTF8
Codec ID/Info : UTF-8 Plain Text
Duration : 1 h 47 min
Bit rate : 69 b/s
Count of elements : 1496
Stream size : 54.6 KiB (0%)
Title : Español
Language : Spanish
Default : No
Forced : No

Capturas : 
Imagen
Imagen
Imagen
Imagen
Imagen
Imagen
Imagen
Imagen
Imagen
  • 0

Membresía Premium
Membresía Premium
Avatar de Usuario
seriépata
Chile (cl)
Capacitado
Capacitado
 
Mensajes: 359
Registrado: 2018-04-10- 2:05
Dinero en mano: 1,136,086.00
Banco: 0.00
última Visita: Hoy- 17:04

Invitaciones enviadas: 0
Referencias: 0
Género: Hombre
Reputación: 165
Película o Serie Favorita: The Twilight Zone
Progreso Membresía Plus:
100%
Progreso Membresía Premium:
100%
Progreso Membresía Deluxe:
90%
Trabajos realizados: Sincronizador de audio, Creador de subtítulos, Ripeador de DVD y BluRay
  
  

Advertisement

Tip1

Grand Hotel (1932)

Notapor Gretro Bot » 2020-01-12- 23:19

Gracias por tu aporte! :clapping:
Recuerda cuidar y mantener en linea tus enlaces, es responsabilidad de todos nosotros colaborar y asegurar en la felicidad de todos nuestros compañeros


Nota Importante:
TU SATISFACCIÓN NOS IMPORTA

Si este aporte tiene sus enlaces rotos, o la información no corresponde con lo descargado, no dudes en avisarnos,
Instrucciones:
haciendo click en el botón de exclamación, situado en la parte superior del primer mensaje:
Imagen

Si has gastado puntos en un aporte con links rotos, te vamos a restituir todos los puntos, con un 10% adicional en compensación por las molestias y nos preocuparemos en restituir los enlaces a la brevedad posible.
  • 0

Membresía de Prueba
Membresía de Prueba
Avatar de Usuario
Gretro Bot
Experto
Experto
 
Mensajes: 16303
Registrado: 2015-10-21- 12:15
Dinero en mano: 121,327.21
última Visita: 2018-11-02- 15:33

Invitaciones enviadas: 0
Referencias: 1
Género: No especificado
Reputación: 144
Progreso Membresía Deluxe:
  • Member’s introduction
  
  


Volver a Películas (Live Action)



¿Quién está conectado?

Usuarios navegando por este Foro: Bing [Bot] y 1 invitado

Reputation System ©'