[Varios Idiomas] Braveheart (1995)

[Exclusivo] [Normal]


[Exclusivo] [Normal] Braveheart (1995)

Notapor seriépata » 2020-03-23- 23:48

[exclusivo] [90s] [coleccion]

Imagen
Información General : 
[barra sinopsis]

En el siglo XIV, los escoceses viven oprimidos por los gravosos tributos y las injustas leyes impuestas por los ingleses. William Wallace es un joven escocés que regresa a su tierra despues de muchos años de ausencia. Siendo un niño, toda su familia fue asesinada por los ingleses, razón por la cual se fue a vivir lejos con un tío suyo. &0;FILMAFFINITY&1;
[datos principales]

  • Título en español: Corazón Valiente
  • Título Original: Braveheart
  • País: EE.UU
  • Año: 1995
  • Dirección: Mel Gibson
  • Guión: Randall Wallace
  • Reparto: Mel Gibson, Sophie Marceau, Patrick McGoohan, Angus MacFadyen, Catherine McCormack, Brendan Gleeson, David O&9;Hara, Tommy Flanagan, Brian Cox, James Cosmo, Alun Armstrong, Ian Bannen, Sean McGinley, Gerard McSorley, Stephen Billington, Peter Hanly, Michael Byrne, John Kavanagh, Peter Mullan, David Gant, Malcolm Tierney, Richard Leaf
  • Productora: Paramount Pictures / Icon Productions / Ladd Company
  • Género: Aventuras | Drama | Histórico | Edad Media | Siglo XIV | Biográfico | Venganza | Cine épico

    [barra trailer]
    Watch on youtube.com

MediaInfo : 
General
Unique ID : 177883498493472310159761243691550386917 &0;0x85D31D9A53BA00479ED7FCF55B3A2AE5&1;
Complete name : D:1995.Braveheart.1080p.H265.LATX2-VO.SS-generacionretro.net.mkv
Format : Matroska
Format version : Version 4 / Version 2
File size : 3.97 GiB
Duration : 2 h 57 min
Overall bit rate : 3 200 kb/s
Movie name : generacionretro.net-seriepata
Encoded date : UTC 2020-03-09 21:51:02
Writing application : mkvmerge v13.0.0 &0;&9;The Juggler&9;&1; 64bit
Writing library : libebml v1.3.4 + libmatroska v1.4.5

Video
ID : 1
Format : HEVC
Format/Info : High Efficiency Video Coding
Codec ID : V_MPEGH/ISO/HEVC
Duration : 2 h 57 min
Bit rate : 2 006 kb/s
Width : 1 920 pixels
Height : 818 pixels
Display aspect ratio : 2.35:1
Frame rate mode : Constant
Frame rate : 23.976 &0;24000/1001&1; FPS
Bits/&0;Pixel*Frame&1; : 0.053
Stream size : 2.49 GiB &0;63%&1;
Language : English
Default : Yes
Forced : No

Audio
ID : 2
Format : AC-3
Format/Info : Audio Coding 3
Format settings, Endianness : Big
Codec ID : A_AC3
Duration : 2 h 57 min
Bit rate mode : Constant
Bit rate : 448 kb/s
Channel&0;s&1; : 6 channels
Channel positions : Front: L C R, Side: L R, LFE
Sampling rate : 48.0 kHz
Frame rate : 31.250 FPS &0;1536 SPF&1;
Bit depth : 16 bits
Compression mode : Lossy
Stream size : 570 MiB &0;14%&1;
Title : Inglés AC-3
Language : English
Service kind : Complete Main
Default : Yes
Forced : No

Audio
ID : 4
Format : AC-3
Format/Info : Audio Coding 3
Format settings, Endianness : Big
Codec ID : A_AC3
Duration : 2 h 57 min
Bit rate mode : Constant
Bit rate : 192 kb/s
Channel&0;s&1; : 2 channels
Channel positions : Front: L R
Sampling rate : 48.0 kHz
Frame rate : 31.250 FPS &0;1536 SPF&1;
Bit depth : 16 bits
Compression mode : Lossy
Delay relative to video : 3 s 0 ms
Stream size : 244 MiB &0;6%&1;
Title : Español Latino Original
Language : Spanish
Service kind : Complete Main
Default : No
Forced : No

Audio
ID : 5
Format : AC-3
Format/Info : Audio Coding 3
Format settings, Endianness : Big
Codec ID : A_AC3
Duration : 2 h 57 min
Bit rate mode : Constant
Bit rate : 320 kb/s
Channel&0;s&1; : 6 channels
Channel positions : Front: L C R, Side: L R, LFE
Sampling rate : 48.0 kHz
Frame rate : 31.250 FPS &0;1536 SPF&1;
Bit depth : 16 bits
Compression mode : Lossy
Delay relative to video : 3 s 0 ms
Stream size : 407 MiB &0;10%&1;
Title : Español Latino Remasterizado
Language : Spanish
Service kind : Complete Main
Default : No
Forced : No

Audio
ID : 7
Format : AC-3
Format/Info : Audio Coding 3
Mode : Dolby Digital
Format settings, Endianness : Big
Codec ID : A_AC3
Duration : 2 h 57 min
Bit rate mode : Constant
Bit rate : 224 kb/s
Channel&0;s&1; : 2 channels
Channel positions : Front: L R
Sampling rate : 48.0 kHz
Frame rate : 31.250 FPS &0;1536 SPF&1;
Bit depth : 16 bits
Compression mode : Lossy
Stream size : 285 MiB &0;7%&1;
Title : Commentary Mel Gibson
Language : English
Service kind : Complete Main
Default : No
Forced : No

Text
ID : 3
Format : VobSub
Muxing mode : zlib
Codec ID : S_VOBSUB
Codec ID/Info : Picture based subtitle format used on DVDs
Duration : 2 h 48 min
Bit rate : 5 051 b/s
Count of elements : 1119
Stream size : 6.10 MiB &0;0%&1;
Title : Inglés VobSub
Language : English
Default : No
Forced : No

Text
ID : 6
Format : PGS
Muxing mode : zlib
Codec ID : S_HDMV/PGS
Codec ID/Info : Picture based subtitle format used on BDs/HD-DVDs
Duration : 2 h 49 min
Bit rate : 18.8 kb/s
Count of elements : 2602
Stream size : 22.8 MiB &0;1%&1;
Title : Español PGS
Language : Spanish
Default : Yes
Forced : No

Menu
00:00:00.000 : en:00:00:00.000
00:07:28.531 : en:00:07:28.531
00:16:27.653 : en:00:16:27.653
00:22:03.697 : en:00:22:03.697
00:34:19.891 : en:00:34:19.891
00:39:52.682 : en:00:39:52.682
00:56:07.990 : en:00:56:07.990
01:00:04.267 : en:01:00:04.267
01:07:31.047 : en:01:07:31.047
01:11:54.936 : en:01:11:54.936
01:19:02.738 : en:01:19:02.738
01:33:06.206 : en:01:33:06.206
01:43:47.721 : en:01:43:47.721
01:53:58.456 : en:01:53:58.456
01:59:01.468 : en:01:59:01.468
02:17:18.480 : en:02:17:18.480
02:24:21.986 : en:02:24:21.986
02:28:52.799 : en:02:28:52.799
02:34:15.413 : en:02:34:15.413
02:36:35.094 : en:02:36:35.094
02:46:56.923 : en:02:46:56.923
02:50:46.403 : en:02:50:46.403

... : 
  • 0

Última edición por seriépata el 2020-03-23- 23:50, editado 1 vez en total
Membresía Premium
Membresía Premium
Avatar de Usuario
seriépata
Chile (cl)
Instruído
Instruído
 
Mensajes: 208
Registrado: 2018-04-10- 2:05
Dinero en mano: 720,462.50
Banco: 0.00
última Visita: Hoy- 3:04

Invitaciones enviadas: 0
Referencias: 0
Género: Hombre
Reputación: 128
Película o Serie Favorita: The Twilight Zone
Progreso Membresía Plus:
100%
Progreso Membresía Premium:
100%
Progreso Membresía Deluxe:
76%
Trabajos realizados: Sincronizador de audio, Creador de subtítulos, Ripeador de DVD y BluRay
  
  

Advertisement

Tip1

Braveheart (1995)

Notapor Gretro Bot » 2020-03-23- 23:48

Gracias por tu aporte! :clapping:
Recuerda cuidar y mantener en linea tus enlaces, es responsabilidad de todos nosotros colaborar y asegurar en la felicidad de todos nuestros compañeros


Nota Importante:
TU SATISFACCIÓN NOS IMPORTA

Si este aporte tiene sus enlaces rotos, o la información no corresponde con lo descargado, no dudes en avisarnos,
Instrucciones:
haciendo click en el botón de exclamación, situado en la parte superior del primer mensaje:
Imagen

Si has gastado puntos en un aporte con links rotos, te vamos a restituir todos los puntos, con un 10% adicional en compensación por las molestias y nos preocuparemos en restituir los enlaces a la brevedad posible.
  • 0

Membresía de Prueba
Membresía de Prueba
Avatar de Usuario
Gretro Bot
Experto
Experto
 
Mensajes: 15232
Registrado: 2015-10-21- 12:15
Dinero en mano: 121,327.21
última Visita: 2018-11-02- 15:33

Invitaciones enviadas: 0
Referencias: 1
Género: No especificado
Reputación: 130
Progreso Membresía Deluxe:
  • Member’s introduction
  
  


Volver a Películas (Live Action)



¿Quién está conectado?

Usuarios navegando por este Foro: No hay usuarios registrados visitando el Foro y 74 invitados

Reputation System ©'