[Varios Idiomas] Evangelion: Death (True)² (1998)

[Exclusivo] [Difícil]

[Exclusivo] [Difícil] Evangelion: Death (True)² (1998)

Notapor seriépata » 2020-03-25- 13:57

[exclusivo] [90s]

Imagen
Información General : 
[barra sinopsis]

Death es un resumen de 70 minutos de los primeros 24 episodios de la serie de televisión en formato de un cuarteto de cuerdas, cada uno centrado en los personajes Shinji, Asuka, Rei y Kaworu, mostrando su desarrollo durante la serie de televisión y culminando con la muerte del decimoséptimo Ángel. En el momento de su lanzamiento en los cines el 15 de marzo de 1997, presentaba escenas inéditas que nunca se habían visto; dichas escenas posteriormente fueron agregadas a la serie como imágenes adicionales para los episodios 21&9;-24&9; en la remasterización lanzada en DVD en 2003. Death fue reeditada más tarde cuando Death and Rebirth se estrenó en el canal japonés de televisión satelital WOWOW, y cambió su nombre a Death &0;True&1;, donde se omitió gran parte de las nuevas imágenes. Una última versión llamada Death &0;True&1;² se vió con el lanzamiento de la película Revival of Evangelion. Esta versión es idéntica a Death &0;True&1;, con la excepción de que supone una remasterización de sonido e imágenes y un par de tomas rediseñadas. Death &0;True&1;² elimina la parte Rebirth, que la mantiene definitivamente como parte de The End of Evangelion. &0;FILMAFFINITY&1;
[datos principales]

  • Título en español: Evangelion: Death &0;True&1;²
  • Título Original: Evangelion: Death &0;True&1;²
  • País: Japón
  • Año: 1998
  • Dirección: Hideaki Anno
  • Guión: Hideaki Anno
  • Productora: Production I.G / GAINAX
  • Género: Animación | Ciencia ficción | Acción | Fantástico | Robots | Monstruos | Animación para adultos | Secuela

    [barra trailer]
    Watch on youtube.com

MediaInfo : 
General
Unique ID : 182951701633354689239618283544601016417 &0;0x89A3374F653915EB9BEC120AA365B861&1;
Complete name : D:\1998.Evangelion.Death.&0;True&1;².1080p.LAT-CASx2-ENG-JAP.Subs-generacionretro.net.mkv
Format : Matroska
Format version : Version 4 / Version 2
File size : 6.59 GiB
Duration : 1 h 14 min
Overall bit rate : 12.7 Mb/s
Movie name : generacionretro.net-seriepata
Encoded date : UTC 2020-03-22 10:16:12
Writing application : mkvmerge v13.0.0 &0;&9;The Juggler&9;&1; 64bit
Writing library : libebml v1.3.4 + libmatroska v1.4.5

Video
ID : 1
Format : AVC
Format/Info : Advanced Video Codec
Format profile : [email protected]
Format settings, CABAC : Yes
Format settings, RefFrames : 3 frames
Codec ID : V_MPEG4/ISO/AVC
Duration : 1 h 9 min
Bit rate : 10.9 Mb/s
Width : 1 920 pixels
Height : 1 080 pixels
Display aspect ratio : 16:9
Frame rate mode : Constant
Frame rate : 23.976 &0;24000/1001&1; FPS
Color space : YUV
Chroma subsampling : 4:2:0
Bit depth : 8 bits
Scan type : Progressive
Bits/&0;Pixel*Frame&1; : 0.219
Stream size : 5.28 GiB &0;80%&1;
Default : Yes
Forced : No

Audio
ID : 2
Format : E-AC-3
Format/Info : Enhanced Audio Coding 3
Format settings, Endianness : Big
Codec ID : A_EAC3
Duration : 1 h 9 min
Bit rate mode : Constant
Bit rate : 640 kb/s
Channel&0;s&1; : 6 channels
Channel positions : Front: L C R, Side: L R, LFE
Sampling rate : 48.0 kHz
Frame rate : 187.500 FPS &0;256 SPF&1;
Compression mode : Lossy
Stream size : 317 MiB &0;5%&1;
Title : Español Castellano Remasterizado
Language : Spanish
Service kind : Complete Main
Default : No
Forced : No

Audio
ID : 3
Format : E-AC-3
Format/Info : Enhanced Audio Coding 3
Format settings, Endianness : Big
Codec ID : A_EAC3
Duration : 1 h 9 min
Bit rate mode : Constant
Bit rate : 640 kb/s
Channel&0;s&1; : 6 channels
Channel positions : Front: L C R, Side: L R, LFE
Sampling rate : 48.0 kHz
Frame rate : 187.500 FPS &0;256 SPF&1;
Compression mode : Lossy
Stream size : 317 MiB &0;5%&1;
Title : Español Latino
Language : Spanish
Service kind : Complete Main
Default : Yes
Forced : No

Audio
ID : 4
Format : E-AC-3
Format/Info : Enhanced Audio Coding 3
Format settings, Endianness : Big
Codec ID : A_EAC3
Duration : 1 h 9 min
Bit rate mode : Constant
Bit rate : 640 kb/s
Channel&0;s&1; : 6 channels
Channel positions : Front: L C R, Side: L R, LFE
Sampling rate : 48.0 kHz
Frame rate : 187.500 FPS &0;256 SPF&1;
Compression mode : Lossy
Stream size : 317 MiB &0;5%&1;
Title : Inglés
Language : English
Service kind : Complete Main
Default : No
Forced : No

Audio
ID : 5
Format : E-AC-3
Format/Info : Enhanced Audio Coding 3
Format settings, Endianness : Big
Codec ID : A_EAC3
Duration : 1 h 9 min
Bit rate mode : Constant
Bit rate : 640 kb/s
Channel&0;s&1; : 6 channels
Channel positions : Front: L C R, Side: L R, LFE
Sampling rate : 48.0 kHz
Frame rate : 187.500 FPS &0;256 SPF&1;
Compression mode : Lossy
Stream size : 317 MiB &0;5%&1;
Title : Japonés
Language : Japanese
Service kind : Complete Main
Default : No
Forced : No

Audio
ID : 8
Format : MPEG Audio
Codec ID : A_MPEG/L3
Codec ID/Hint : MP3
Duration : 1 h 13 min
Bit rate : 128 kb/s
Channel&0;s&1; : 2 channels
Sampling rate : 48.0 kHz
Frame rate : 41.667 FPS &0;1152 SPF&1;
Compression mode : Lossy
Stream size : 67.3 MiB &0;1%&1;
Title : Español Castellano Original
Language : Spanish
Default : No
Forced : No

Text
ID : 6
Format : UTF-8
Codec ID : S_TEXT/UTF8
Codec ID/Info : UTF-8 Plain Text
Duration : 1 h 7 min
Bit rate : 53 b/s
Count of elements : 770
Stream size : 26.5 KiB &0;0%&1;
Title : Español FULL
Language : Spanish
Default : No
Forced : No

Text
ID : 7
Format : UTF-8
Codec ID : S_TEXT/UTF8
Codec ID/Info : UTF-8 Plain Text
Duration : 1 h 7 min
Bit rate : 3 b/s
Count of elements : 63
Stream size : 1.75 KiB &0;0%&1;
Title : Español FORZADO
Language : Spanish
Default : Yes
Forced : No

Evangelion: Death and Rebirth &0;1997&1; : 
Evangelion: Death and Rebirth (1997)

  • 0

Membresía Premium
Membresía Premium
Avatar de Usuario
seriépata
Chile (cl)
Instruído
Instruído
 
Mensajes: 208
Registrado: 2018-04-10- 2:05
Dinero en mano: 720,462.50
Banco: 0.00
última Visita: Hoy- 3:04

Invitaciones enviadas: 0
Referencias: 0
Género: Hombre
Reputación: 128
Película o Serie Favorita: The Twilight Zone
Progreso Membresía Plus:
100%
Progreso Membresía Premium:
100%
Progreso Membresía Deluxe:
76%
Trabajos realizados: Sincronizador de audio, Creador de subtítulos, Ripeador de DVD y BluRay
  
  

Advertisement

Tip1

Evangelion: Death (True)² (1998)

Notapor Gretro Bot » 2020-03-25- 13:57

Gracias por tu aporte! :clapping:
Recuerda cuidar y mantener en linea tus enlaces, es responsabilidad de todos nosotros colaborar y asegurar en la felicidad de todos nuestros compañeros


Nota Importante:
TU SATISFACCIÓN NOS IMPORTA

Si este aporte tiene sus enlaces rotos, o la información no corresponde con lo descargado, no dudes en avisarnos,
Instrucciones:
haciendo click en el botón de exclamación, situado en la parte superior del primer mensaje:
Imagen

Si has gastado puntos en un aporte con links rotos, te vamos a restituir todos los puntos, con un 10% adicional en compensación por las molestias y nos preocuparemos en restituir los enlaces a la brevedad posible.
  • 0

Membresía de Prueba
Membresía de Prueba
Avatar de Usuario
Gretro Bot
Experto
Experto
 
Mensajes: 15232
Registrado: 2015-10-21- 12:15
Dinero en mano: 121,327.21
última Visita: 2018-11-02- 15:33

Invitaciones enviadas: 0
Referencias: 1
Género: No especificado
Reputación: 130
Progreso Membresía Deluxe:
  • Member’s introduction
  
  


Volver a Ovas y Películas (Anime)



¿Quién está conectado?

Usuarios navegando por este Foro: No hay usuarios registrados visitando el Foro y 11 invitados

Reputation System ©'